<?xml version="1.0" standalone="no"?>
<!DOCTYPE svg PUBLIC "-//W3C//DTD SVG 1.1//EN" "http://www.w3.org/Graphics/SVG/1.1/DTD/svg11.dtd" >
<svg xmlns="http://www.w3.org/2000/svg">
<metadata>Generated by IcoMoon</metadata>
<defs>
<font id="icomoon" horiz-adv-x="1024">
<font-face units-per-em="1024" ascent="960" descent="-64" />
<missing-glyph horiz-adv-x="1024" />
<glyph unicode="&#x20;" horiz-adv-x="512" d="" />
<glyph unicode="&#xe900;" glyph-name="add-to" horiz-adv-x="975" d="M121.92 838.021c-40.407 0-73.164-32.757-73.164-73.164v0-706.936c0-40.407 32.757-73.164 73.164-73.164v0h731.462c40.407 0 73.164 32.757 73.164 73.164v0 706.996c0 40.407-32.757 73.164-73.164 73.164v0zM121.92 886.836h731.462c67.335 0 121.92-54.586 121.92-121.92v0-706.996c0-0.018 0-0.038 0-0.059 0-67.335-54.586-121.92-121.92-121.92h-731.462c-67.335 0-121.92 54.586-121.92 121.92 0 0.021 0 0.042 0 0.062v-0.003 706.996c0 67.335 54.586 121.92 121.92 121.92v0zM22.871 567.645v48.697h923.533v-48.697zM264.348 935.651c0 13.447 10.901 24.349 24.349 24.349s24.349-10.901 24.349-24.349v0-146.742c0-13.447-10.901-24.349-24.349-24.349s-24.349 10.901-24.349 24.349v0zM463.332 455.653c0 13.447 10.901 24.349 24.349 24.349s24.349-10.901 24.349-24.349v-363.87c0-13.447-10.901-24.349-24.349-24.349s-24.349 10.901-24.349 24.349v0zM654.398 935.651c0.916 12.761 11.493 22.767 24.408 22.767s23.492-10.006 24.403-22.688l0.005-0.079v-146.446c-0.916-12.761-11.493-22.767-24.408-22.767s-23.492 10.006-24.403 22.688l-0.005 0.079zM669.586 298.038c12.761-0.916 22.767-11.493 22.767-24.408s-10.006-23.492-22.688-24.403l-0.079-0.005h-363.87c-12.761 0.916-22.767 11.493-22.767 24.408s10.006 23.492 22.688 24.403l0.079 0.005z" />
<glyph unicode="&#xe901;" glyph-name="location" d="M496.64 893.44c-189.44 0-343.040-153.6-343.040-348.16 0-122.88 40.96-174.080 215.040-409.6 30.72-40.96 66.56-87.040 107.52-143.36 5.12 0 15.36-5.12 20.48-5.12s15.36 5.12 20.48 10.24c40.96 56.32 76.8 102.4 107.52 143.36 179.2 235.52 220.16 286.72 220.16 409.6 0 184.32-158.72 343.040-348.16 343.040zM583.68 171.52c-25.6-35.84-56.32-71.68-87.040-112.64-30.72 46.080-61.44 81.92-87.040 112.64-174.080 230.4-204.8 271.36-204.8 378.88 0 163.84 133.12 291.84 291.84 291.84s291.84-133.12 291.84-291.84c0-107.52-30.72-148.48-204.8-378.88zM496.64 734.72c-102.4 0-184.32-81.92-184.32-184.32s81.92-184.32 184.32-184.32 184.32 81.92 184.32 184.32-81.92 184.32-184.32 184.32zM496.64 417.28c-71.68 0-133.12 61.44-133.12 133.12s61.44 133.12 133.12 133.12c71.68 0 133.12-61.44 133.12-133.12s-56.32-133.12-133.12-133.12z" />
<glyph unicode="&#xe902;" glyph-name="phone" horiz-adv-x="1023" d="M996.852 209.288l-171.333 171.333c-16.387 16.442-39.055 26.616-64.099 26.616s-47.712-10.174-64.096-26.613l-72.925-72.925-2.262-2.564c-7.772-8.542-18.398-14.366-30.361-15.959l-0.255-0.028c-16.273 0.902-30.563 8.694-40.112 20.483l-0.081 0.104-89.437 89.362-89.211 89.437c-11.83 9.561-19.606 23.73-20.58 39.737l-0.008 0.155c1.478 12.351 7.333 23.114 15.943 30.88l0.044 0.039 2.564 2.262 72.922 72.922c16.442 16.387 26.616 39.055 26.616 64.099s-10.174 47.712-26.613 64.096l-170.959 170.883c-16.387 16.442-39.055 26.616-64.099 26.616s-47.712-10.174-64.096-26.613l-0.003-0.003-71.565-71.64c-45.197-44.672-73.189-106.667-73.189-175.199 0-5.883 0.206-11.718 0.612-17.498l-0.044 0.778c6.259-89.135 47.886-269.593 255.868-477.575s388.44-249.458 477.575-255.868c5.58 0 11.161-0.603 16.817-0.603 68.318 0.585 129.947 28.743 174.394 73.871l0.030 0.031 71.64 71.64c16.33 16.368 26.427 38.96 26.427 63.91s-10.098 47.542-26.429 63.912l0.002-0.002zM951.606 126.336l-71.565-71.64c-33.152-33.828-79.315-54.798-130.375-54.798-3.983 0-7.936 0.128-11.856 0.379l0.535-0.027c-80.161 5.656-243.576 44.040-437.381 237.317s-231.36 356.994-237.392 437.381c-0.228 3.422-0.359 7.418-0.359 11.444 0 51.057 20.941 97.222 54.702 130.377l0.027 0.027 71.64 71.565c4.76 4.814 11.364 7.795 18.664 7.795s13.905-2.981 18.662-7.792l0.002-0.002 171.71-171.182c4.909-4.786 7.954-11.464 7.954-18.853s-3.045-14.067-7.949-18.847l-0.006-0.005-71.942-71.942c-21.193-18.789-35.214-45.257-37.678-75.003l-0.027-0.407c-0.012-0.61-0.018-1.328-0.018-2.049 0-34.514 15.125-65.495 39.107-86.677l0.124-0.108 178.798-178.798c21.329-24.108 52.341-39.23 86.885-39.23 0.685 0 1.369 0.006 2.051 0.018l-0.103-0.001c30.408 2.309 57.146 16.366 75.988 37.589l0.101 0.116 71.414 71.942c4.869 4.728 11.52 7.643 18.853 7.643s13.984-2.915 18.859-7.65l-0.007 0.006 171.182-171.333c4.795-4.768 7.763-11.37 7.763-18.664s-2.968-13.896-7.762-18.663l-0.001-0.001z" />
<glyph unicode="&#xe903;" glyph-name="calendar-new" d="M854.989 960h-74.24v-79.309h-537.6v79.309h-74.189v-79.309h-168.96v-944.691h1024v944.691h-168.96zM949.811 10.189h-875.52v570.163h875.52zM949.811 806.451v-151.91h-875.52v151.91h94.822v-75.776h74.189v75.776h537.6v-75.776h74.24v75.776zM478.464 493.722h67.072v-67.072h-67.072v67.072zM316.262 493.722h67.123v-67.072h-67.123v67.072zM640.614 493.722h67.072v-67.072h-67.072v67.072zM640.614 331.469h67.072v-67.072h-67.072v67.072zM802.816 331.469h67.072v-67.072h-67.072v67.072zM478.413 331.469h67.123v-67.072h-67.123v67.072zM316.262 331.469h67.123v-67.072h-67.123v67.072zM154.061 331.469h67.072v-67.072h-67.072v67.072zM154.061 169.318h67.072v-67.072h-67.072v67.072zM316.262 169.318h67.123v-67.072h-67.123v67.072zM478.413 169.318h67.123v-67.072h-67.123v67.072zM640.614 169.318h67.072v-67.072h-67.072v67.072zM802.816 493.722h67.072v-67.072h-67.072v67.072z" />
<glyph unicode="&#xe904;" glyph-name="dot" d="M1024 448c0-282.77-229.23-512-512-512s-512 229.23-512 512c0 282.77 229.23 512 512 512s512-229.23 512-512z" />
<glyph unicode="&#xe905;" glyph-name="email" horiz-adv-x="1365" d="M1134.971-64h-904.609c-127.173 0.129-230.233 103.189-230.362 230.35v563.288c0.129 127.173 103.189 230.233 230.35 230.362h904.622c127.173-0.129 230.233-103.189 230.362-230.35v-563.364c-0.173-127.141-103.215-230.157-230.35-230.286h-0.012zM230.362 874.667c-80.062-0.086-144.942-64.966-145.029-145.020v-563.36c0.086-80.062 64.966-144.942 145.020-145.029h904.618c80.062 0.086 144.942 64.966 145.029 145.020v563.36c-0.086 80.062-64.966 144.942-145.020 145.029h-0.008zM765.876 430.478l410.283 280.652c10.44 7.873 17.118 20.252 17.118 34.191 0 23.585-19.119 42.705-42.705 42.705-8.396 0-16.226-2.423-22.829-6.608l0.175 0.103-409.6-280.652c-10.093-6.779-22.519-10.82-35.889-10.82-12.979 0-25.068 3.808-35.211 10.367l0.254-0.154-410.207 280.652c-6.429 4.082-14.259 6.505-22.655 6.505-23.585 0-42.705-19.119-42.705-42.705 0-13.939 6.678-26.318 17.009-34.112l0.108-0.078 411.193-281.638c22.887-14.8 50.858-23.598 80.883-23.598 0.551 0 1.102 0.003 1.652 0.009l-0.084-0.001c31.075 0.161 59.928 9.539 84.002 25.536l-0.565-0.353z" />
<glyph unicode="&#xe906;" glyph-name="check" d="M430.178 247.25l-197.46 197.46 65.82 65.82 131.64-131.64 263.317 263.317 65.82-65.857zM0 448v0c0-282.77 229.23-512 512-512v0c282.77 0 512 229.23 512 512s-229.23 512-512 512c-282.77 0-512-229.23-512-512zM512 29.094c-231.355 0-418.906 187.55-418.906 418.906s187.55 418.906 418.906 418.906c231.355 0 418.906-187.55 418.906-418.906v0c0-231.355-187.55-418.906-418.906-418.906v0z" />
<glyph unicode="&#xe907;" glyph-name="person" horiz-adv-x="975" d="M627.584 403.115c93.598 50.959 156.053 148.593 156.053 260.815 0 163.465-132.514 295.979-295.979 295.979s-295.979-132.514-295.979-295.979c0-112.222 62.455-209.856 154.503-260.041l1.55-0.774c-202.657-62.363-347.465-247.786-347.776-467.078v-0.037h61.44c0 235.406 190.834 426.24 426.24 426.24s426.24-190.834 426.24-426.24h61.44c-0.305 219.318-145.095 404.737-344.273 466.195l-3.461 0.919zM253.099 663.979c0 129.603 105.064 234.667 234.667 234.667s234.667-105.064 234.667-234.667c0-129.603-105.064-234.667-234.667-234.667v0c-129.603 0-234.667 105.064-234.667 234.667v0z" />
<glyph unicode="&#xe908;" glyph-name="insurance" horiz-adv-x="1324" d="M0 960v-1023.738h1323.99v1024zM1230.28 29.776h-1136.504v836.383h1136.504zM370.977 221.518h93.776v178.58h179.693v93.776h-179.693v180.806h-93.776v-180.806h-179.693v-93.776h179.693zM778.429 674.548h354.278v-93.776h-354.278v93.776zM778.429 315.162h177.139v-93.776h-177.139v93.776zM778.429 494.855h354.278v-93.776h-354.278v93.776z" />
<glyph unicode="&#xe909;" glyph-name="group" horiz-adv-x="1240" d="M63.539-33.512c-2.115-15.828-15.532-27.909-31.77-27.909s-29.655 12.081-31.752 27.745l-0.018 0.164c0 0.183-0.001 0.4-0.001 0.617 0 125.489 76.823 233.034 186.005 278.171l1.998 0.732c-40.486 33.677-66.071 84.069-66.071 140.437 0 100.026 80.564 181.235 180.343 182.279l0.099 0.001c29.771-0.445 57.698-7.917 82.328-20.825l-1.008 0.481c33.153 39.33 74.857 70.379 122.333 90.452l2.13 0.8c-41.857 32.216-68.563 82.333-68.563 138.687 0 0.443 0.002 0.886 0.005 1.328v-0.068c-0.017 0.923-0.027 2.012-0.027 3.104 0 99.643 80.777 180.42 180.42 180.42s180.42-80.777 180.42-180.42c0-1.091-0.010-2.18-0.029-3.267l0.002 0.163c-0.806-56.568-27.272-106.795-68.254-139.67l-0.358-0.278c49.318-21.629 90.903-52.621 124.148-91.030l0.368-0.434c23.124 12.809 50.703 20.348 80.043 20.348 0.449 0 0.897-0.002 1.346-0.005h-0.069c99.722-1.246 180.082-82.376 180.082-182.276 0-56.252-25.48-106.553-65.528-139.992l-0.29-0.236c111.179-45.869 188.003-153.414 188.003-278.903 0-0.217 0-0.434-0.001-0.651v0.034c-1.574-16.989-15.758-30.186-33.025-30.186s-31.45 13.197-33.015 30.055l-0.010 0.131c0.017 1.057 0.027 2.303 0.027 3.552 0 130.518-105.806 236.324-236.324 236.324s-236.324-105.806-236.324-236.324c0-1.249 0.010-2.496 0.029-3.74l-0.002 0.188c-2.115-15.828-15.532-27.909-31.77-27.909s-29.655 12.081-31.752 27.745l-0.018 0.164c-0.011 0.934-0.017 2.037-0.017 3.142 0 124.82 76.963 231.664 186.023 275.667l1.995 0.711c-41.801 33.737-68.379 84.889-68.612 142.257v0.039c-0.003 0.403-0.005 0.88-0.005 1.358 0 45.961 18.336 87.64 48.093 118.119l-0.033-0.033c-44.172 54.031-110.581 88.449-185.051 89.168l-0.121 0.001c-74.848-0.028-141.601-34.658-185.135-88.763l-0.358-0.46c28.019-31.723 45.28-73.523 45.758-119.344l0.001-0.099c0.010-0.704 0.015-1.535 0.015-2.368 0-56.211-25.592-106.445-65.761-139.685l-0.303-0.244c111.179-45.869 188.003-153.414 188.003-278.903 0-0.217 0-0.434-0.001-0.651v0.034c-2.115-15.828-15.532-27.909-31.77-27.909s-29.655 12.081-31.752 27.745l-0.018 0.164c0 131.226-106.38 237.606-237.606 237.606s-237.606-106.38-237.606-237.606v0zM619.964 896.461c-64.25-0.745-116.136-52.631-116.88-116.81l-0.001-0.071c0.961-63.342 52.534-114.321 116.014-114.321 0.305 0 0.609 0.001 0.914 0.004h-0.047c0.127-0.001 0.277-0.001 0.428-0.001 62.9 0 113.891 50.991 113.891 113.891 0 0.15 0 0.301-0.001 0.451v-0.023c0.002 0.258 0.003 0.562 0.003 0.867 0 63.48-50.979 115.053-114.231 116.013l-0.090 0.001zM937.608 502.623c-63.844 0-115.599-51.755-115.599-115.599s51.755-115.599 115.599-115.599v0c63.844 0 115.599 51.755 115.599 115.599s-51.755 115.599-115.599 115.599v0zM302.213 502.623c-0.395 0.005-0.861 0.008-1.328 0.008-63.844 0-115.599-51.755-115.599-115.599s51.755-115.599 115.599-115.599c63.844 0 115.599 51.755 115.599 115.599 0 0.448-0.003 0.895-0.008 1.342l0.001-0.068c-0.060 63.036-51.084 114.136-114.087 114.318h-0.017z" />
<glyph unicode="&#xe90a;" glyph-name="novelHealth-logo" horiz-adv-x="8126" d="M534.558 369.389c0 136.716-75.194 209.175-188.668 209.175s-190.035-68.358-190.035-209.175v-421.084h-155.856v751.936h155.856v-82.029c53.265 58.951 129.993 95.837 215.336 95.837 3.122 0 6.232-0.049 9.331-0.147l-0.453 0.011c176.363 0 308.977-110.74 308.977-321.282v-444.326h-154.489zM1214.035-65.367c-3.265-0.104-7.104-0.164-10.958-0.164-202.733 0-367.081 164.348-367.081 367.081 0 7.994 0.256 15.928 0.759 23.795l-0.055-1.073c-0.3 5.585-0.471 12.123-0.471 18.701 0 204.999 166.184 371.183 371.183 371.183 4.733 0 9.446-0.089 14.136-0.264l-0.677 0.020c3.993 0.154 8.683 0.242 13.393 0.242 204.999 0 371.183-166.184 371.183-371.183 0-6.096-0.147-12.157-0.437-18.181l0.033 0.85c0.164-4.154 0.257-9.030 0.257-13.929 0-208.396-168.939-377.335-377.335-377.335-4.898 0-9.775 0.093-14.628 0.278l0.699-0.021zM1214.035 71.348c0.124 0 0.27 0 0.417 0 127.983 0 231.733 103.75 231.733 231.733 0 7.944-0.4 15.795-1.18 23.533l0.080-0.975c0 170.895-110.74 252.924-226.948 252.924s-222.846-82.029-222.846-252.924 98.435-254.291 218.745-254.291zM1837.458 701.607l213.276-615.22 213.276 615.22h165.426l-287.103-751.936h-185.933l-285.736 751.936zM2871.028-65.367c-3.292-0.106-7.163-0.167-11.048-0.167-201.978 0-365.714 163.736-365.714 365.714 0 8.477 0.288 16.887 0.856 25.22l-0.062-1.128c0 236.518 153.121 388.272 375.968 388.272 4.607 0.216 10.008 0.339 15.438 0.339 194.050 0 351.359-157.309 351.359-351.359 0-5.89-0.145-11.745-0.431-17.564l0.032 0.819c0.012-1.277 0.019-2.787 0.019-4.298 0-25.505-1.995-50.544-5.839-74.969l0.351 2.706h-575.573c2.176-111.579 93.141-201.197 205.037-201.197 3.379 0 6.739 0.082 10.078 0.243l-0.471-0.018c3.643-0.259 7.893-0.407 12.177-0.407 72.915 0 135.844 42.758 165.081 104.568l0.472 1.11h168.16c-45.207-139.433-173.938-238.476-325.801-238.476-7.068 0-14.085 0.215-21.046 0.637l0.957-0.046zM2657.752 392.63h418.35c-2.668 105.9-89.15 190.729-195.445 190.729-5.796 0-11.532-0.252-17.2-0.746l0.736 0.052c-0.57 0.006-1.244 0.009-1.919 0.009-107.97 0-196.451-83.439-204.48-189.353l-0.042-0.69zM3390.547 960h155.856v-1011.696h-155.856zM4343.455 354.35h-410.147v-406.045h-191.402v954.275h191.402v-392.374h410.147v392.374h191.402v-957.009h-191.402zM5054.377-65.367c-4.111-0.165-8.937-0.259-13.786-0.259-202.733 0-367.081 164.348-367.081 367.081 0 8.509 0.29 16.951 0.859 25.315l-0.062-1.131c-0.676 8.311-1.061 17.992-1.061 27.763 0 200.846 162.818 363.664 363.664 363.664 6.144 0 12.252-0.152 18.321-0.453l-0.854 0.034c5.428 0.296 11.781 0.465 18.174 0.465 196.315 0 355.461-159.145 355.461-355.461 0-5.934-0.145-11.834-0.433-17.697l0.032 0.826c0.011-1.189 0.018-2.595 0.018-4.002 0-24.651-1.995-48.836-5.833-72.403l0.346 2.578h-553.698c1.122-96.922 79.954-175.061 177.036-175.061 1.686 0 3.367 0.024 5.043 0.070l-0.246-0.005c2.878-0.19 6.24-0.298 9.627-0.298 62.905 0 117.105 37.267 141.729 90.926l0.399 0.971h205.073c-44.149-147.543-178.678-253.237-337.893-253.237-5.217 0-10.407 0.113-15.569 0.338l0.735-0.025zM4869.81 396.732h359.562c-2.789 90.691-76.976 163.148-168.085 163.148-4.356 0-8.674-0.166-12.947-0.491l0.568 0.035c-1.191 0.029-2.595 0.046-4.002 0.046-91.988 0-167.464-70.7-175.052-160.726l-0.044-0.644zM5863.733 718.013c3.019 0.109 6.566 0.171 10.127 0.171 97.932 0 184.882-47.018 239.509-119.711l0.554-0.77v108.005h192.769v-757.405h-192.769v110.74c-54.876-75.801-143.089-124.543-242.687-124.543-3.119 0-6.227 0.048-9.323 0.143l0.453-0.011c-191.402 0-341.789 157.223-341.789 393.741s153.121 389.64 343.156 389.64zM5912.951 549.853c-111.126-2.746-200.161-93.483-200.161-205.015 0-5.313 0.202-10.579 0.599-15.79l-0.042 0.693c-0.658-6.164-1.033-13.316-1.033-20.555 0-111.699 89.303-202.541 200.407-205.021l0.231-0.004c111.819 1.872 201.746 92.957 201.746 205.046 0 6.266-0.281 12.467-0.831 18.59l0.057-0.79c0.493 5.333 0.774 11.534 0.774 17.8 0 112.089-89.927 203.174-201.57 205.044l-0.175 0.002zM6493.992 960h191.402v-1011.696h-191.402zM6904.139 549.853h-90.232v155.856h90.232v185.933h192.769v-185.933h169.527v-155.856h-169.527v-366.398c0-50.585 20.507-72.459 80.662-72.459h88.865v-162.692h-120.31c-144.919 0-241.987 61.522-241.987 235.151zM7404.518 960h191.402v-348.625c53.798 64.633 134.273 105.474 224.286 105.474 3.821 0 7.625-0.074 11.41-0.219l-0.545 0.017c170.895 0 295.306-114.841 295.306-324.016v-444.326h-191.402v418.35c0 121.677-68.358 187.3-168.16 187.3s-170.895-68.358-170.895-187.3v-418.35h-191.402z" />
<glyph unicode="&#xe90b;" glyph-name="delete" d="M889.704 826.184h-198.678v39.736c0 43.886-35.584 79.472-79.472 79.472h-198.678c-43.888 0-79.472-35.586-79.472-79.472v-39.736h-198.678v-39.736h40.94l39.774-754.978c0-43.888 35.584-79.472 79.472-79.472h437.092c43.888 0 79.472 35.584 79.472 79.472l39.076 754.978h39.154v39.736zM373.14 865.92c0 21.924 17.852 39.736 39.736 39.736h198.678c21.924 0 39.736-17.812 39.736-39.736v-39.736h-278.15v39.736zM771.816 33.528l-0.078-1.010v-1.048c0-21.886-17.812-39.736-39.736-39.736h-437.092c-21.884 0-39.736 17.85-39.736 39.736v1.048l-0.038 1.046-39.696 752.884h595.338l-38.962-752.92zM492.346 706.978h39.736v-635.77h-39.736v635.77zM413.768 72.486l-40.666 634.528-39.658-2.52 40.668-634.528zM691.298 705.736l-39.658 2.482-40.086-635.77 39.658-2.482z" />
<glyph unicode="&#xe90c;" glyph-name="arrow-down" horiz-adv-x="1755" d="M877.123-64l881.261 878.158-148.945 145.842-732.315-731.281-731.281 731.281-145.842-145.842z" />
<glyph unicode="&#xe90d;" glyph-name="tick" horiz-adv-x="1302" d="M439.833-64l-439.833 439.833 161.654 161.654 278.179-278.179 700.789 700.789 161.654-161.654z" />
<glyph unicode="&#xe90e;" glyph-name="warning" horiz-adv-x="1141" d="M570.672 960l-570.672-1024h1141.345zM570.672 816.619l451.901-810.854h-903.731zM535.79 575.224h69.765v-335.27h-69.765zM535.79 184.385h69.765v-69.765h-69.765z" />
<glyph unicode="&#xe90f;" glyph-name="cross-circle" d="M512 886.857c-242.374 0-438.857-196.483-438.857-438.857s196.483-438.857 438.857-438.857c242.374 0 438.857 196.483 438.857 438.857v0c-0.291 242.257-196.6 438.566-438.829 438.857h-0.029zM512 960c282.77 0 512-229.23 512-512s-229.23-512-512-512c-282.77 0-512 229.23-512 512v0c0 282.77 229.23 512 512 512v0zM720.267 601.769l-54.513 54.513-153.763-153.763-153.763 153.763-54.513-54.513 153.763-153.763-153.763-153.763 54.513-54.513 153.763 153.763 153.763-153.763 54.513 54.513-153.763 153.763z" />
<glyph unicode="&#xe910;" glyph-name="download-new" horiz-adv-x="871" d="M0 13.128h871.178v-77.128h-871.178zM750.633 483.267l-54.518 54.518-222.003-222.003v644.178h-77.128v-644.219l-222.003 222.003-54.518-54.518 315.064-315.105z" />
<glyph unicode="&#xe911;" glyph-name="survy-update" horiz-adv-x="964" d="M407.498 92.65h-383.090c-13.302 0-24.085 10.783-24.085 24.085v0 819.179c0.007 13.299 10.786 24.078 24.084 24.085h679.874c13.302 0 24.085-10.783 24.085-24.085v0-417.235c0-13.305-10.786-24.092-24.092-24.092s-24.092 10.786-24.092 24.092v0 393.124h-631.703v-770.983h359.017c13.067-0.312 23.54-10.979 23.54-24.092s-10.473-23.78-23.511-24.091l-0.029-0.001zM544.828 760.448h-389.882c-13.305 0-24.092 10.786-24.092 24.092s10.786 24.092 24.092 24.092v0h389.87c13.067-0.312 23.54-10.979 23.54-24.092s-10.473-23.78-23.511-24.091l-0.029-0.001zM325.621 646.002h-170.675c-13.305 0-24.092 10.786-24.092 24.092s10.786 24.092 24.092 24.092v0h170.675c13.067-0.312 23.54-10.979 23.54-24.092s-10.473-23.78-23.511-24.091l-0.029-0.001zM395.888 531.543h-240.942c-13.305 0-24.092 10.786-24.092 24.092s10.786 24.092 24.092 24.092v0h240.942c13.305 0 24.092-10.786 24.092-24.092s-10.786-24.092-24.092-24.092v0zM255.341 417.096h-100.396c-13.305 0-24.092 10.786-24.092 24.092s10.786 24.092 24.092 24.092v0h100.396c13.305 0 24.092-10.786 24.092-24.092s-10.786-24.092-24.092-24.092v0zM663.226-64c-0.008 0-0.017 0-0.026 0-166.148 0-300.838 134.69-300.838 300.838s134.69 300.838 300.838 300.838c166.126 0 300.802-134.653 300.838-300.77v-0.004c-0.176-166.081-134.738-300.675-300.791-300.903h-0.022zM663.226 489.519c-139.53 0-252.642-113.112-252.642-252.642s113.112-252.642 252.642-252.642c139.526 0 252.635 113.105 252.642 252.629v0.001c-0.162 139.468-113.175 252.486-252.626 252.655h-0.016zM618.762 122.65c-0.008 0-0.017 0-0.026 0-6.646 0-12.661 2.7-17.008 7.063l-91.331 91.37c-4.359 4.359-7.056 10.382-7.056 17.034 0 13.304 10.785 24.090 24.090 24.090 6.652 0 12.675-2.696 17.034-7.056l74.296-74.348 163.159 163.185c4.359 4.359 10.382 7.056 17.034 7.056 13.304 0 24.090-10.785 24.090-24.090 0-6.652-2.696-12.675-7.056-17.034l-180.193-180.219c-4.353-4.363-10.372-7.063-17.021-7.064v0z" />
<glyph unicode="&#xe912;" glyph-name="tick1" d="M767.682 616.324c-15.762 16.62-42.040 17.352-58.686 1.55l-265.022-251.338-126.408 129.786c-16.010 16.426-42.26 16.786-58.7 0.774-16.426-15.996-16.772-42.274-0.776-58.7l154.984-159.122c8.122-8.344 18.916-12.55 29.738-12.55 10.268 0 20.536 3.792 28.576 11.388l294.746 279.524c16.632 15.776 17.336 42.054 1.548 58.688zM512 960c-282.32 0-512-229.68-512-512s229.68-512 512-512 512 229.68 512 512-229.68 512-512 512zM512 19.026c-236.53 0-428.974 192.428-428.974 428.974 0 236.53 192.442 428.974 428.974 428.974 236.544 0 428.974-192.442 428.974-428.974 0-236.544-192.43-428.974-428.974-428.974z" />
<glyph unicode="&#xe913;" glyph-name="printer" d="M331.968 801.056c-8.832 0-16.096 7.264-16.096 16.096s7.264 15.872 16.096 15.872h144.224c8.832 0 16.096-7.040 16.096-15.872s-7.232-16.096-16.096-16.096zM331.968 575.648c-8.832 0-16.096 7.264-16.096 16.096s7.264 15.872 16.096 15.872h283.68c8.832 0 16.096-7.040 16.096-15.872s-7.264-16.096-16.096-16.096zM331.968 647.776c-8.832 0-16.096 7.040-16.096 15.872s7.264 16.096 16.096 16.096h360.096c8.832 0 15.872-7.232 15.872-16.096s-7.040-15.872-15.872-15.872zM331.968 719.648c-8.832 0-16.096 7.264-16.096 16.096s7.264 15.872 16.096 15.872h360.096c8.832 0 15.872-7.040 15.872-15.872s-7.040-16.096-15.872-16.096zM188.864 98.592c8.832 0 16.096-7.040 16.096-15.872s-7.264-16.096-16.096-16.096h-119.936c-18.816 0-36.064 7.936-48.768 20.416-0.224 0.224-0.448 0.672-0.896 0.896-11.776 12.48-19.264 29.248-19.264 47.84v265.088c0 33.568 13.824 63.936 35.84 86.144 22.208 21.984 52.608 35.84 86.176 35.84h780c33.568 0 63.936-13.824 86.176-35.84 22.016-22.208 35.84-52.608 35.84-86.144v-265.088c0-19.040-7.936-36.288-20.416-48.736-0.224-0.448-0.672-0.672-0.896-0.896-12.48-12.032-29.248-19.52-47.84-19.52h-119.264c-8.832 0-16.096 7.264-16.096 16.096s7.264 15.872 16.096 15.872h119.264c9.952 0 18.816 4.096 25.6 10.208 0 0.224 0.224 0.448 0.672 0.896 6.592 6.592 10.88 15.872 10.88 26.080v265.088c0 24.704-10.208 47.168-26.528 63.488s-38.784 26.528-63.488 26.528h-780.032c-24.704 0-47.168-10.208-63.488-26.528s-26.528-38.784-26.528-63.488v-265.088c0-9.984 3.84-18.816 10.208-25.408l0.672-0.672c6.816-6.784 16.096-11.104 26.080-11.104h119.936zM861.216 447.776c15.424 0 29.472-6.336 39.456-16.544 0.448-0.224 0.672-0.672 1.152-0.896 9.504-10.208 15.424-23.808 15.424-38.528 0-15.424-6.336-29.504-16.544-39.68s-24.032-16.32-39.456-16.32-29.504 6.144-39.68 16.32c-9.984 10.208-16.32 24.256-16.32 39.68s6.336 29.472 16.32 39.456c10.208 10.208 24.256 16.544 39.68 16.544zM878.208 408.768c-4.32 4.288-10.432 7.040-16.992 7.040s-12.704-2.72-17.024-7.040c-4.32-4.544-7.040-10.432-7.040-16.992s2.72-12.704 7.040-17.024c4.32-4.32 10.208-7.040 17.024-7.040 6.592 0 12.672 2.72 16.992 7.040s7.040 10.208 7.040 17.024c0 6.336-2.496 12-6.336 16.32-0.224 0.224-0.448 0.448-0.672 0.672zM146.944 407.648c8.832 0 16.096-7.040 16.096-15.872s-7.264-16.096-16.096-16.096-15.872 7.264-15.872 16.096 7.040 15.872 15.872 15.872zM287.744 407.648c8.832 0 16.096-7.040 16.096-15.872s-7.264-16.096-16.096-16.096c-8.832 0-15.872 7.264-15.872 16.096s7.040 15.872 15.872 15.872zM217.44 407.648c8.864 0 15.872-7.040 15.872-15.872s-7.040-16.096-15.872-16.096c-8.832 0-16.096 7.264-16.096 16.096s7.264 15.872 16.096 15.872zM793.856 257.76c-1.376 8.608 4.768 16.768 13.6 18.144 8.608 1.12 16.768-4.992 17.92-13.6l40.128-274.368c0.224-2.048 0.448-4.096 0.448-5.888 0-12-4.992-22.656-12.928-30.816-7.488-7.712-17.696-12.928-28.576-14.528-2.272-0.448-4.544-0.672-6.784-0.672h-611.328c-2.272 0-4.512 0.224-6.816 0.672h-0.672c-10.656 1.824-20.416 7.040-27.904 14.496-7.936 8.16-12.928 18.816-12.928 30.816 0 1.824 0.224 3.84 0.448 5.888l39.904 274.368c1.376 8.608 9.28 14.752 18.144 13.6 8.832-1.376 14.752-9.504 13.6-18.144l-40.128-274.368v-1.376c0-3.168 1.6-6.112 3.84-8.608 2.496-2.72 6.112-4.544 9.76-5.216h0.448c0.672 0 1.376-0.224 2.272-0.224h611.328c0.896 0 1.6 0.224 2.272 0.224 3.84 0.672 7.488 2.496 10.208 5.216 2.272 2.496 3.84 5.44 3.84 8.608 0 0.448 0 1.12-0.224 1.376zM150.784 183.616c8.832 0 15.872-7.264 15.872-16.096s-7.040-15.872-15.872-15.872c-13.152 0-25.184 5.44-34.016 14.048-8.608 8.832-14.048 20.864-14.048 33.792v28.576c0 13.152 5.44 25.184 14.048 33.792h0.224c8.608 8.832 20.64 14.048 33.792 14.048h723.104c13.152 0 25.184-5.216 33.792-14.048 8.832-8.832 14.048-20.64 14.048-33.792v-28.576c0-13.152-5.216-24.928-14.048-33.792s-20.64-14.048-33.792-14.048c-8.832 0-16.096 7.040-16.096 15.872s7.264 16.096 16.096 16.096c4.32 0 8.384 1.824 11.328 4.544v0.224c2.72 2.72 4.544 6.784 4.544 11.104v28.576c0 4.32-1.824 8.384-4.544 11.104v0.224c-2.944 2.72-7.040 4.544-11.328 4.544h-723.104c-4.544 0-8.608-1.824-11.328-4.544v-0.224c-2.944-2.72-4.768-6.784-4.768-11.104v-28.576c0-4.32 1.824-8.384 4.768-11.104v-0.224c2.72-2.72 6.816-4.544 11.328-4.544zM230.368 568.864c0-8.832-7.264-16.096-16.096-16.096s-15.872 7.264-15.872 16.096v348.288c0 11.808 4.768 22.464 12.48 30.176 0.448 0.448 0.672 0.672 1.12 1.12 7.712 7.040 17.92 11.552 29.248 11.552h435.584c5.664 0 11.104-1.12 16.096-3.168 5.216-2.048 9.76-4.992 13.824-8.832l104.992-98.88c4.544-4.32 8.16-9.088 10.432-14.496s3.424-11.136 3.424-17.216v-248.512c0-8.832-7.040-16.096-15.872-16.096s-16.096 7.264-16.096 16.096v225.6l-74.4-0.224v-0.224h-0.224v0.224c-21.536 0-37.856 7.488-48.768 19.264-11.104 12.032-16.32 27.68-16.32 44.448h-0.224v70.048h-412.48c-2.72 0-5.44-1.152-7.264-2.72l-0.448-0.448c-2.048-2.048-3.168-4.768-3.168-7.712v-348.288zM789.536 826.208l-103.84 97.728v-65.984c0-8.832 2.72-16.992 7.936-22.656s13.6-9.312 25.408-9.312h0.224z" />
</font>
</defs>
</svg>
